ncis los angeles Krypton suits arrow The Walking Dead westworld s02e05 big bang theory the simpsons westworld deadpool fgt ddr seal team silicon valley survivor saturday night live American crime story 13 Reasons Why the big bang theory Supergirl Young sheldon Supernatural family guy the good fight deception brooklyn bLACK PANTHER into the badlands ncis judge judy S22 killing eve BLINDSPOT red sparrow Deadpool 2 fear the walking dead Anohana the flash ready player one trust star trek discovery español Legion dtone Madam secretary Timeless 13 Reasons why S02 The 100 brooklyn nine nine THE EXPANSE modern family evo greys anatomy avengers infinity war 2018 ethd billions LETHAL WEAPON 13 reasons why season 2 deadpool 2 2018 emails homeland etrg EVO last week tonight star trek discovery arrow español big bang theory español lucifer aGENTS OF SHIELD etmovies hindi Ettv gotham 
Warning! Use a VPN When Downloading Torrents!
Your IP Address is 95.85.70.103. Location is Russian Federation
Your Internet Provider is tracking your torrent activity! Hide your IP ADDRESS with a VPN!
We strongly recommend using Trust.Zone VPN to anonymize your torrenting. It's FREE!
Get VPN Now for FREE!
ETTV Recommended TV Shows
Westworld.S02E05.WEB.H264-DEFLATE[ettv] torrent
Billions.S03E09.WEB.H264-DEFLATE[ettv] torrent
Into.the.Badlands.S03E05.HDTV.x264-KILLERS[ettv] torrent
Fear.the.Walking.Dead.S04E06.HDTV.x264-KILLERS[ettv] torrent

ETTV Recommended Xvid
Cargo.2018.HDRip.XviD.AC3-EVO[EtMovies] torrent
Dark.Crimes.2018.HDRip.XviD.AC3-EVO[EtMovies] torrent
Fahrenheit.451.2018.HDRip.XViD-ETRG torrent
A Quiet Place.2018.HC.HDRip.XviD.AC3-EVO[EtMovies] torrent

ETTV Recommended HD
Daphne.&.Velma.2018.BluRay.1080p.x264.DTS-HD.MA5.1.-DTOne torrent
Early Man 2018 Multi BluRay 1080p x264 Atmos 7.1-DTOne torrent
Stalingrad 2013 Multi 1080p Blu-ray x264 DTS-HDMA 5.1-DTOne torrent
The Last Samurai 2003 1080p Blu-ray x264 TrueHD 5.1-DTOne torrent

ETTV Recommended Cam
Traffik 2018 HDCAM ENG X264 - SugarTits torrent
Overboard 2018 720p HDCAM X264 HQMic-CPG torrent
Deadpool.2.2018.HDTS.XViD.AC3-ETRG torrent
Avengers Infinity War 2018 NEW 720p HD-TS X264-CPG torrent

ETTV Recommended Foreign
A.Fantastic.Woman.2017.BluRay.1080p.x264.DTS-HD.MA5.1-DTOne torrent
The Monkey King 3 Kingdom of Women 2018 Blu-ray 1080p x264 Atmos 7.1 -DTOne torrent
Magadheera 2009 Blu-ray 1080p HEVC AAC 5.1-DTOne torrent
Dhammu.2012.Blu-Ray.1080p.HEVC.AAC.5.1-DTOne torrent

Social

Loading...

Download Torrent "Tokyo Ghoul-re - 03 (1080p x265 HEVC 10bit AAC 2.0 DUAL-AUDIO BugsFunny) [U..."

IMDB Details
Description:

N/A

Genre:

N/A

Download Torrent (Magnet)
Download Torrent (File)
Seeds: 72
Leechers: 3
Completed: 1,020 
Last Checked: 18-04-2018 18:17:51


Details
Title:Tokyo Ghoul-re - 03 (1080p x265 HEVC 10bit AAC 2.0 DUAL-AUDIO BugsFunny) [U...
Description:





Media Information
General
Format                                   : Matroska
Format version                           : Version 4 / Version 2
File size                                : 363 MiB
Duration                                 : 24 min 10 s
Overall bit rate                         : 2 101 kb/s
Encoded date                             : UTC 2018-04-18 15:25:15
Writing application                      : mkvmerge v17.0.0 ('Be Ur Friend') 64-bit
Writing library                          : libebml v1.3.5 + libmatroska v1.4.8
Writing frontend                         : StaxRip v1.7.0.5

Video
ID                                       : 1
Format                                   : HEVC
Format/Info                              : High Efficiency Video Coding
Format profile                           : Main [email protected]@Main
Codec ID                                 : V_MPEGH/ISO/HEVC
Duration                                 : 24 min 9 s
Bit rate                                 : 1 756 kb/s
Width                                    : 1 920 pixels
Height                                   : 1 080 pixels
Display aspect ratio                     : 16:9
Frame rate mode                          : Constant
Frame rate                               : 23.976 (24000/1001) FPS
Color space                              : YUV
Chroma subsampling                       : 4:2:0
Bit depth                                : 10 bits
Bits/(Pixel*Frame)                       : 0.035
Stream size                              : 303 MiB (84%)
Writing library                          : x265 2.7+17-2e370d98c806:[Windows][GCC 8.0.1][64 bit] 10bit
Encoding settings                        : cpuid=1173503 / frame-threads=3 / numa-pools=8 / wpp / no-pmode / no-pme / no-psnr / no-ssim / log-level=2 / input-csp=1 / input-res=1920x1080 / interlace=0 / total-frames=34755 / level-idc=0 / high-tier=1 / uhd-bd=0 / ref=4 / no-allow-non-conformance / no-repeat-headers / annexb / no-aud / no-hrd / info / hash=0 / no-temporal-layers / open-gop / min-keyint=23 / keyint=250 / gop-lookahead=0 / bframes=4 / b-adapt=2 / b-pyramid / bframe-bias=0 / rc-lookahead=30 / lookahead-slices=4 / scenecut=40 / radl=0 / no-intra-refresh / ctu=32 / min-cu-size=8 / no-rect / no-amp / max-tu-size=16 / tu-inter-depth=2 / tu-intra-depth=2 / limit-tu=0 / rdoq-level=2 / dynamic-rd=0.00 / no-ssim-rd / signhide / no-tskip / nr-intra=0 / nr-inter=0 / no-constrained-intra / strong-intra-smoothing / max-merge=3 / limit-refs=3 / limit-modes / me=3 / subme=5 / merange=92 / temporal-mvp / weightp / no-weightb / no-analyze-src-pics / deblock=1:1 / sao / no-sao-non-deblock / rd=4 / no-early-skip / rskip / no-fast-intra / no-tskip-fast / no-cu-lossless / no-b-intra / no-splitrd-skip / rdpenalty=0 / psy-rd=2.00 / psy-rdoq=5.00 / no-rd-refine / no-lossless / cbqpoffs=0 / crqpoffs=0 / rc=crf / crf=21.5 / qcomp=0.60 / qpstep=4 / stats-write=0 / stats-read=0 / ipratio=1.40 / pbratio=1.30 / aq-mode=3 / aq-strength=1.00 / cutree / zone-count=0 / no-strict-cbr / qg-size=32 / no-rc-grain / qpmax=69 / qpmin=0 / no-const-vbv / sar=0 / overscan=0 / videoformat=5 / range=0 / colorprim=2 / transfer=2 / colormatrix=2 / chromaloc=0 / display-window=0 / max-cll=0,0 / min-luma=0 / max-luma=1023 / log2-max-poc-lsb=8 / vui-timing-info / vui-hrd-info / slices=1 / no-opt-qp-pps / no-opt-ref-list-length-pps / no-multi-pass-opt-rps / scenecut-bias=0.05 / no-opt-cu-delta-qp / aq-motion / no-hdr / no-hdr-opt / no-dhdr10-opt / no-idr-recovery-sei / analysis-reuse-level=5 / scale-factor=0 / refine-intra=0 / refine-inter=0 / refine-mv=0 / no-limit-sao / ctu-info=0 / no-lowpass-dct / refine-mv-type=0 / copy-pic=1 / max-ausize-factor=1.0 / no-dynamic-refine
Default                                  : Yes
Forced                                   : No

Audio #1
ID                                       : 2
Format                                   : AAC
Format/Info                              : Advanced Audio Codec
Format profile                           : LC
Codec ID                                 : A_AAC
Duration                                 : 24 min 9 s
Bit rate                                 : 154 kb/s
Channel(s)                               : 2 channels
Channel positions                        : Front: L R
Sampling rate                            : 48.0 kHz
Frame rate                               : 46.875 FPS (1024 spf)
Compression mode                         : Lossy
Delay relative to video                  : 20 ms
Stream size                              : 26.6 MiB (7%)
Title                                    : jap-audio
Language                                 : Japanese
Default                                  : Yes
Forced                                   : No

Audio #2
ID                                       : 6
Format                                   : AAC
Format/Info                              : Advanced Audio Codec
Format profile                           : LC
Codec ID                                 : A_AAC
Duration                                 : 24 min 10 s
Bit rate                                 : 113 kb/s
Channel(s)                               : 2 channels
Channel positions                        : Front: L R
Sampling rate                            : 48.0 kHz
Frame rate                               : 46.875 FPS (1024 spf)
Compression mode                         : Lossy
Stream size                              : 19.4 MiB (5%)
Title                                    : eng-audio
Default                                  : No
Forced                                   : No

Subtitle #1
ID                                       : 3
Format                                   : ASS
Codec ID                                 : S_TEXT/ASS
Codec ID/Info                            : Advanced Sub Station Alpha
Duration                                 : 24 min 7 s
Bit rate                                 : 96 b/s
Count of elements                        : 307
Compression mode                         : Lossless
Stream size                              : 17.1 KiB (0%)
Title                                    : English Subtitles
Language                                 : English
Default                                  : Yes
Forced                                   : No

Subtitle #2
ID                                       : 4
Format                                   : ASS
Codec ID                                 : S_TEXT/ASS
Codec ID/Info                            : Advanced Sub Station Alpha
Duration                                 : 23 min 18 s
Bit rate                                 : 69.2 kb/s
Count of elements                        : 41250
Compression mode                         : Lossless
Stream size                              : 11.5 MiB (3%)
Title                                    : signs & songs
Default                                  : No
Forced                                   : No

Subtitle #3
ID                                       : 5
Format                                   : ASS
Codec ID                                 : S_TEXT/ASS
Codec ID/Info                            : Advanced Sub Station Alpha
Duration                                 : 20 min 26 s
Bit rate                                 : 4 b/s
Count of elements                        : 9
Compression mode                         : Lossless
Stream size                              : 695 Bytes (0%)
Title                                    : signs only
Default                                  : No
Forced                                   : No

Source Information
Release:
[Erai-raws] Tokyo Ghoul-re - 03 [1080p] (1.35 GBs)
[Golumpa] Tokyo Ghoul re - 03 (Tokyo Ghoul S3) [FuniDub 1080p x264 AAC] [3B88D21A] (1.36GBs) - For English Audio



Note From UTR We have no issue with individuals posting or re-uploading our torrents on a platform we aren't on. However, if this is something you'd like to do, please do so in a 'as-is' format. We ask that you do not create a new torrent, include all descriptions you see above including the UTR logo, tags, notes and screenshots. If you'd like to become a permanent poster on a website we don't post to, feel free to get in contact with a UniTeam member.

If possible please donate: BTC 1QA5fum5AyXvWzdVCkQzUNvw3Ef15fHRaR


Category:Anime > Dubbed/Subbed
Lang:Japanese  Japanese
Total Size:381 MB
Info Hash:0e0909a76f5e71ed5624262d57694277d5e90597
Added By:UTR
Date Added:18-04-2018 18:17:45

Files

File List: 
 File Size
Tokyo Ghoul-re - 03 (1080p x265 HEVC 10bit AAC 2.0 DUAL-AUDIO BugsFunny) [UTR].mkv381 MB



Loading...
Comments

There are currently no comments. Be the first one to write something !

Disclaimer: None of the files shown here are actually hosted or transmitted by this server. The links are provided solely by this site's users. The site moderation is also a service provided by the site's users. The administrator of this site (ettv.tv) cannot be held responsible for what its users post, or any other actions of its users. You may not use this site to distribute or download any material when you do not have the legal rights to do so. It is your own responsibility to adhere to these terms.